<?xml version="1.0" standalone="no"?>
<!DOCTYPE svg PUBLIC "-//W3C//DTD SVG 1.1//EN" "http://www.w3.org/Graphics/SVG/1.1/DTD/svg11.dtd" >
<svg xmlns="http://www.w3.org/2000/svg">
<metadata></metadata>
<defs>
<font id="yui_paginatorregular" horiz-adv-x="2048" >
<font-face units-per-em="2048" ascent="1638" descent="-410" />
<missing-glyph horiz-adv-x="500" />
<glyph />
<glyph />
<glyph unicode="&#xd;" />
<glyph unicode="&#x2000;" horiz-adv-x="717" />
<glyph unicode="&#x2001;" horiz-adv-x="1434" />
<glyph unicode="&#x2002;" horiz-adv-x="717" />
<glyph unicode="&#x2003;" horiz-adv-x="1434" />
<glyph unicode="&#x2004;" horiz-adv-x="478" />
<glyph unicode="&#x2005;" horiz-adv-x="358" />
<glyph unicode="&#x2006;" horiz-adv-x="239" />
<glyph unicode="&#x2007;" horiz-adv-x="239" />
<glyph unicode="&#x2008;" horiz-adv-x="179" />
<glyph unicode="&#x2009;" horiz-adv-x="286" />
<glyph unicode="&#x200a;" horiz-adv-x="79" />
<glyph unicode="&#x202f;" horiz-adv-x="286" />
<glyph unicode="&#x205f;" horiz-adv-x="358" />
<glyph unicode="&#xe000;" horiz-adv-x="1024" d="M0 0z" />
<glyph unicode="&#xf048;" horiz-adv-x="1634" d="M0 31v1372q0 13 9 22t22 9h137q14 0 22.5 -9t8.5 -22v-1372q0 -13 -8.5 -22t-22.5 -9h-137q-13 0 -22 9t-9 22zM242 727.5q1 33.5 37 52.5l1280 629q27 15 51 -0.5t24 -46.5v-1288q0 -34 -24.5 -48t-55.5 1l-1275 649q-38 18 -37 51.5z" />
<glyph unicode="&#xf051;" horiz-adv-x="1634" d="M0 74v1288q0 31 24.5 46.5t51.5 0.5l1280 -629q36 -19 37 -52.5t-37 -51.5l-1276 -649q-31 -15 -55.5 -1t-24.5 48zM1436 31v1372q0 14 8.5 22.5t21.5 8.5h138q13 0 21.5 -8.5t8.5 -22.5v-1372q0 -14 -8.5 -22.5t-21.5 -8.5h-138q-13 0 -21.5 8.5t-8.5 22.5z" />
<glyph unicode="&#xf0d9;" horiz-adv-x="1392" d="M0 727.5q1 33.5 37 52.5l1280 629q27 15 51.5 -0.5t24.5 -46.5v-1288q0 -34 -24.5 -48t-55.5 1l-1276 649q-38 18 -37 51.5z" />
<glyph unicode="&#xf0da;" horiz-adv-x="1392" d="M0 74v1288q0 31 24.5 46.5t51.5 0.5l1280 -629q36 -19 37 -52.5t-37 -51.5l-1276 -649q-31 -15 -55.5 -1t-24.5 48z" />
</font>
</defs>
</svg>
